Descargar (A Christmas Carol Latino 1080p + Soundtrack FLAC)

[A Christmas Carol(Un cuento de navidad) Latino 1080p + Soundtrack FLAC + MEGA]


Sinopsis:

Ebenezer Scrooge (JIM CARREY) comienza las navidades haciendo uso de su habitual mezquindad, gritando a su fiel empleado (GARY OLDMAN) y a su alege sobrino (COLIN FIRTH). Pero esa misma noche los fantasmas de las Navidades Pasadas, Presentes y Futuras se presentan en su habitación para llevarle a un viaje en el que tendrá que enfrentarse a una realidad que no quiere ver. Entonces el viejo Scrooge tendrá que abrir su corazón e intentar arreglar todo el mal que ha hecho antes de que sea demasiado tarde.

Ficha tecnica
General
Complete name                  :Cuento de Navidad 2009 Latino BDRip 1920 x 1080.mkv
Format                         : Matroska
Format version                 : Version 2
File size                      : 8.46 GiB
Duration                       : 1h 35mn
Overall bit rate               : 12.6 Mbps
Encoded date                   : UTC 2012-09-21 17:51:29
Writing application            : mkvmerge v5.6.0 ('Kenya Kane') built on May 27 2012 16:44:04
Writing library                : libebml v1.2.3 + libmatroska v1.3.0

Video
ID                             : 1
Format                         : AVC
Format/Info                    : Advanced Video Codec
Format profile                 : [email protected] /* */
Format settings, CABAC         : Yes
Format settings, ReFrames      : 5 frames
Muxing mode                    : Header stripping
Codec ID                       : V_MPEG4/ISO/AVC
Duration                       : 1h 35mn
Bit rate                       : 10.4 Mbps
Width                          : 1 920 pixels
Height                         : 800 pixels
Display aspect ratio           : 2.40:1
Frame rate mode                : Constant
Frame rate                     : 23.976 fps
Color space                    : YUV
Chroma subsampling             : 4:2:0
Bit depth                      : 8 bits
Scan type                      : Progressive
Bits/(Pixel*Frame)             : 0.281
Stream size                    : 6.77 GiB (80%)
Language                       : English
Default                        : Yes
Forced                         : No


>>Enlace para Descargar (A Christmas Carol Latino 1080p + Soundtrack FLAC) 1 Link<<

Audio #1
ID                             : 2
Format                         : AC-3
Format/Info                    : Audio Coding 3
Mode extension                 : CM (complete main)
Format settings, Endianness    : Big
Muxing mode                    : Header stripping
Codec ID                       : A_AC3
Duration                       : 1h 35mn
Bit rate mode                  : Constant
Bit rate                       : 384 Kbps
Channel(s)                     : 6 channels
Channel positions              : Front: L C R, Side: L R, LFE
Sampling rate                  : 48.0 KHz
Bit depth                      : 16 bits
Compression mode               : Lossy
Delay relative to video        : 1s 0ms
Stream size                    : 263 MiB (3%)
Title                          : ESPAÑOL LATINO 5.1
Language                       : Spanish
Default                        : Yes
Forced                         : No

Audio #2
ID                             : 3
Format                         : AC-3
Format/Info                    : Audio Coding 3
Mode extension                 : CM (complete main)
Format settings, Endianness    : Big
Muxing mode                    : Header stripping
Codec ID                       : A_AC3
Duration                       : 1h 35mn
Bit rate mode                  : Constant
Bit rate                       : 384 Kbps
Channel(s)                     : 6 channels
Channel positions              : Front: L C R, Side: L R, LFE
Sampling rate                  : 48.0 KHz
Bit depth                      : 16 bits
Compression mode               : Lossy
Stream size                    : 263 MiB (3%)
Language                       : Spanish
Default                        : No
Forced                         : No

Audio #3
ID                             : 4
Format                         : DTS
Format/Info                    : Digital Theater Systems
Muxing mode                    : Header stripping
Codec ID                       : A_DTS
Duration                       : 1h 35mn
Bit rate mode                  : Constant
Bit rate                       : 1 510 Kbps
Channel(s)                     : 6 channels
Channel positions              : Front: L C R, Side: L R, LFE
Sampling rate                  : 48.0 KHz
Bit depth                      : 24 bits
Compression mode               : Lossy
Stream size                    : 1.01 GiB (12%)
Language                       : English
Default                        : No
Forced                         : No

Text #1
ID                             : 5
Format                         : UTF-8
Codec ID                       : S_TEXT/UTF8
Codec ID/Info                  : UTF-8 Plain Text
Language                       : Spanish
Default                        : Yes
Forced                         : No

Text #2
ID                             : 6
Format                         : UTF-8
Codec ID                       : S_TEXT/UTF8
Codec ID/Info                  : UTF-8 Plain Text
Language                       : English
Default                        : No
Forced                         : No

Click en la imagen para verla en tamaño completo

Soundtrack
2009 – A Christmas Carol (by Alan Silvestri) FLAC

Ficha tecnica


01 – A Christmas Carol (04:21)
02 – Scrooge Counts Money (00:48)
03 – Marley's Ghost Visits Scrooge (06:13)
04 – The Ghost Of Christmas Past (05:00)
05 – Let Us See Another Christmas (01:18)
06 – Flight To Fezziwigs (01:29)
07 – First Waltz (01:00)
08 – Another Idol Has Replaced Me (01:41)
09 – Touch My Robe (03:42)
10 – The Clock Tower (01:50)
11 – Carriage Chase (03:24)
12 – Old Joe And Mrs. Dilber (02:28)
13 – This Dark Chamber (01:57)
14 – None Of Us Will Ever Forget (01:34)
15 – Who Was That Lying Dead? (03:09)
16 – I'm Still Here (01:27)
17 – Ride On My Good Man (01:05)
18 – God Bless Us Everyone (03:16)

tack + log + cue

>> Descargar (A Christmas Carol Latino 1080p + Soundtrack FLAC) 1 Link Gratis <<

Para Reportar Enlaces que no funcionan , Pedir contraseñas o pedir alguna descarga lo pueden hacer mediante la Fanpage :